yu Yu Hakusho

FICHA TÉCNICA

Título Original: YU YU HAKUSHO
Diretor: Noriyuki Abe
Genero: LutaAventura
Ano de Lançamento: 1994
Tipo de Áudio: Trial Áudio
Legenda: Embutida (selecionável)
Tamanho: 37,7 GB
Tempo de Duração: 23
Qualidade: BD-Rip 720p
Formato: MKV
Número de Episódios: 112
Release: Gilgamesh
Servidor: BRupload

Sinopse: É uma série de mangá shonen escrita e ilustrada por Yoshihiro Togashi que conta a história de Yusuke Urameshi, um delinquente de quatorze anos de idade que é atingido e morto por um carro ao tentar salvar a vida de uma criança. Após realizar alguns testes apresentados a ele por Koenma, o filho do governante do submundo, Yusuke é revivido e é lhe dado o título de “Detetive Sobrenatural”, com o qual deve investigar vários casos envolvendo demônios e fantasmas no mundo humano. A história se torna mais focada em batalhas e torneios de artes marciais à medida que progride. Togashi começou a criar a série Yu Yu Hakusho por volta de novembro de 1990, baseando-a em seu interesse em séries de ocultismo e filmes de terror e sendo influenciado pela mitologia budista.

banner

bannerPersonagens de Anime

Bluray 1080P

Download YU YU HAKUSHO [YU YU HAKUSHO] Bluray 1080P

Mediainfo YU YU HAKUSHO [YU YU HAKUSHO] Bluray 720P

Spoiler

Video
ID : 1
Format : AVC
Format/Info : Advanced Video Codec
Format profile : [email protected]
Format settings : CABAC / 8 Ref Frames
Format settings, CABAC : Yes
Format settings, Reference : 8 frames
Muxing mode : Header stripping
Codec ID : V_MPEG4/ISO/AVC
Duration : 23 min 43 s
Width : 1 280 pixels
Height : 960 pixels
Display aspect ratio : 4:3
Frame rate mode : Constant
Frame rate : 23.976 (24000/1001) FPS
Color space : YUV
Chroma subsampling : 4:2:0
Bit depth : 8 bits
Scan type : Progressive
Title : animeshd.blogspot.com
Writing library : x264 core 98 r1643 59a9e03
Encoding settings : cabac=1 / ref=8 / deblock=1:0:0 / analyse=0x3:0x133 / me=umh / subme=10 / psy=1 / psy_rd=1.00:0.00 / mixed_ref=1 / me_range=24 / chroma_me=1 / trellis=2 / 8x8dct=1 / cqm=0 / deadzone=21,11 / fast_pskip=0 / chroma_qp_offset=-2 / threads=6 / sliced_threads=0 / nr=0 / decimate=1 / interlaced=0 / constrained_intra=0 / bframes=8 / b_pyramid=2 / b_adapt=2 / b_bias=0 / direct=3 / weightb=1 / weightp=2 / keyint=240 / keyint_min=24 / scenecut=76 / intra_refresh=0 / rc_lookahead=50 / rc=crf / mbtree=1 / crf=22.0 / qcomp=0.70 / qpmin=10 / qpmax=51 / qpstep=4 / ip_ratio=1.40 / aq=2:1.00
Language : Portuguese
Default : Yes
Forced : No

Audio #1
ID : 2
Format : AC-3
Format/Info : Audio Coding 3
Commercial name : Dolby Digital
Format settings : Dolby Surround
Muxing mode : Header stripping
Codec ID : A_AC3
Duration : 23 min 43 s
Bit rate mode : Constant
Bit rate : 192 kb/s
Channel(s) : 2 channels
Channel layout : L R
Sampling rate : 48.0 kHz
Frame rate : 31.250 FPS (1536 SPF)
Compression mode : Lossy
Delay relative to video : 200 ms
Stream size : 32.6 MiB (10%)
Title : Português
Language : Portuguese
Service kind : Complete Main
Default : Yes
Forced : No

Audio #2
ID : 3
Format : AAC LC
Format/Info : Advanced Audio Codec Low Complexity
Codec ID : A_AAC-2
Duration : 23 min 43 s
Channel(s) : 2 channels
Channel layout : L R
Sampling rate : 48.0 kHz
Frame rate : 46.875 FPS (1024 SPF)
Compression mode : Lossy
Title : Japonês
Language : Japanese
Default : No
Forced : No

Audio #3
ID : 4
Format : AC-3
Format/Info : Audio Coding 3
Commercial name : Dolby Digital
Muxing mode : Header stripping
Codec ID : A_AC3
Duration : 23 min 43 s
Bit rate mode : Constant
Bit rate : 256 kb/s
Channel(s) : 2 channels
Channel layout : L R
Sampling rate : 48.0 kHz
Frame rate : 31.250 FPS (1536 SPF)
Compression mode : Lossy
Stream size : 43.4 MiB (13%)
Title : Inglês
Language : English
Service kind : Complete Main
Default : No
Forced : No

Updated: 17 de janeiro de 2022 — 12:02

Deixe uma resposta

O seu endereço de e-mail não será publicado. Campos obrigatórios são marcados com *

BaixarTurbo © 2018