X-Men Evolution – 2ª Temporada

FICHA TÉCNICA

Título Original: X-Men Evolution
Diretor: Marvel Studios
Genero: Aventura / Mutantes / Ação
Ano de Lançamento: 2000
Qualidade: 1080P WEB-DL
Formato: MKV
Áudio: Dual Áudio
Legenda: Embutida (selecionável)
Tamanho: 1,30 GB – Por Episódio
Tempo de Duração: 22 Minutos

Sinopse: Sinopse : No Instituto xavier, Cyclop, Jean Grey, Spike e os outros mutantes se reúnem para ensinar e aprender mais sobre si mesmos e sobre seus poderes. Mas além de todo esse aprendizado, juntos eles vão enfrentar as maiores aventuras.

banner

bannerDavid Kaye – Professor X
Venus Terzo – Jean Grey (voice)
Kirby Morrow – Cyclops (voice)
Brad Swaile – Nightcrawler (voice)
Kirsten Alter – Storm (voice)
Maggie O’Hara – Shadowcat (voice)

WEB-DL 1080P

Download X-Men Evolution [X-Men Evolution] WEB-DL 1080P

X-Men Evolution Bluray 1080p Bluray Remux 4K UHD 2160p HDR

Spoiler

Video
ID : 1
Format : AVC
Format/Info : Advanced Video Codec
Format profile : [email protected]
Format settings : CABAC / 4 Ref Frames
Format settings, CABAC : Yes
Format settings, Reference fra : 4 frames
Codec ID : V_MPEG4/ISO/AVC
Duration : 20 min 46 s
Bit rate mode : Variable
Bit rate : 8 250 kb/s
Maximum bit rate : 12.4 Mb/s
Width : 1 920 pixels
Height : 1 080 pixels
Display aspect ratio : 16:9
Frame rate mode : Constant
Frame rate : 29.970 (30000/1001) FPS
Color space : YUV
Chroma subsampling : 4:2:0
Bit depth : 8 bits
Scan type : Progressive
Bits/(Pixel*Frame) : 0.133
Stream size : 1.19 GiB (91%)
Writing library : x264 core 157 r2965 861cec4
Encoding settings : cabac=1 / ref=4 / deblock=1:0:0 / analyse=0x3:0x113 / me=hex / subme=7 / psy=1 / psy_rd=1.00:0.00 / mixed_ref=1 / me_range=16 / chroma_me=1 / trellis=1 / 8x8dct=1 / cqm=0 / deadzone=21,11 / fast_pskip=1 / chroma_qp_offset=-2 / threads=34 / lookahead_threads=5 / sliced_threads=0 / nr=0 / decimate=1 / interlaced=0 / bluray_compat=0 / constrained_intra=0 / bframes=3 / b_pyramid=2 / b_adapt=1 / b_bias=0 / direct=1 / weightb=1 / open_gop=0 / weightp=2 / keyint=120 / keyint_min=120 / scenecut=40 / intra_refresh=0 / rc_lookahead=40 / rc=2pass / mbtree=1 / bitrate=8250 / ratetol=1.0 / qcomp=0.60 / qpmin=0 / qpmax=69 / qpstep=4 / cplxblur=20.0 / qblur=0.5 / vbv_maxrate=12375 / vbv_bufsize=6187 / nal_hrd=vbr / filler=0 / ip_ratio=1.40 / aq=1:1.00
Default : Yes
Forced : No
Color range : Limited
Color primaries : BT.709
Transfer characteristics : BT.709
Matrix coefficients : BT.709

Audio #1
ID : 2
Format : AC-3
Format/Info : Audio Coding 3
Commercial name : Dolby Digital
Codec ID : A_AC3
Duration : 20 min 46 s
Bit rate mode : Constant
Bit rate : 384 kb/s
Channel(s) : 2 channels
Channel layout : L R
Sampling rate : 48.0 kHz
Frame rate : 31.250 FPS (1536 SPF)
Compression mode : Lossy
Stream size : 57.0 MiB (4%)
Language : Portuguese
Service kind : Complete Main
Default : Yes
Forced : No

Audio #2
ID : 3
Format : AC-3
Format/Info : Audio Coding 3
Commercial name : Dolby Digital
Codec ID : A_AC3
Duration : 20 min 46 s
Bit rate mode : Constant
Bit rate : 384 kb/s
Channel(s) : 2 channels
Channel layout : L R
Sampling rate : 48.0 kHz
Frame rate : 31.250 FPS (1536 SPF)
Compression mode : Lossy
Stream size : 57.0 MiB (4%)
Language : English
Service kind : Complete Main
Default : No
Forced : No

Text #1
ID : 4
Format : UTF-8
Codec ID : S_TEXT/UTF8
Codec ID/Info : UTF-8 Plain Text
Duration : 19 min 36 s
Bit rate : 1 b/s
Count of elements : 15
Stream size : 236 Bytes (0%)
Title : Forced (For Portuguese audio)
Language : Portuguese
Default : Yes
Forced : Yes

Text #2
ID : 5
Format : UTF-8
Codec ID : S_TEXT/UTF8
Codec ID/Info : UTF-8 Plain Text
Duration : 20 min 11 s
Bit rate : 61 b/s
Count of elements : 227
Stream size : 9.16 KiB (0%)
Language : Portuguese
Default : No
Forced : No

Text #3
ID : 6
Format : UTF-8
Codec ID : S_TEXT/UTF8
Codec ID/Info : UTF-8 Plain Text
Duration : 20 min 11 s
Bit rate : 60 b/s
Count of elements : 234
Stream size : 8.95 KiB (0%)
Language : English
Default : No
Forced : No

Text #4
ID : 7
Format : UTF-8
Codec ID : S_TEXT/UTF8
Codec ID/Info : UTF-8 Plain Text
Duration : 20 min 16 s
Bit rate : 66 b/s
Count of elements : 266
Stream size : 9.86 KiB (0%)
Title : SDH
Language : English
Default : No
Forced : No

Text #5
ID : 8
Format : UTF-8
Codec ID : S_TEXT/UTF8
Codec ID/Info : UTF-8 Plain Text
Duration : 20 min 43 s
Bit rate : 62 b/s
Count of elements : 229
Stream size : 9.43 KiB (0%)
Language : Spanish
Default : No
Forced : No

Menu
00:00:00.000 : Chapter 1
00:02:56.343 : Intro
00:03:45.526 : Chapter 2
00:14:45.951 : Chapter 3
00:20:16.000 : Credits


BaixarBluray.net / Siga-nos no Twitter

X-Men Evolution Bluray 1080p Bluray Remux 4K UHD 2160p HDR

Updated: 21 de setembro de 2022 — 10:24

Deixe um comentário

O seu endereço de e-mail não será publicado.

BaixarTurbo © 2018