Três Espiãs Demais! – 1ª Temporada

FICHA TÉCNICA

Título Original: Totally Spies!
Diretor: David Michel
Genero: Animação / Comédia / Aventura
Ano de Lançamento: 2001
Qualidade: 1080P WEB-DL
Formato: MKV
Áudio: Dual Áudio
Legenda: Embutida (selecionável)
Tamanho: 600 MB Por Episódio
Tempo de Duração: 22 Minutos

Sinopse: Sinopse : Sam, Clover e Alex são três jovens comuns de Beverly Hills que passam a ser agentes da WOOHP (Organização Mundial de Proteção Humana), uma agência de espionagem. Líderadas por Jerry, o presidente da companhia que destina missões as garotas, as três melhores amigas lutam contra os mais perigosos criminosos, enquanto tentam lidar com os dramas de toda adolescente.

banner

bannerJennifer Hale – Samantha “Sam” / Mandy (voice)
Andrea Baker – Clover (voice)
Céline Mauge – Alexandra « Alex
Jean-Claude Donda – Jerry Lewis

WEB-DL 1080P

Download Três Espiãs Demais [Totally Spies!] WEB-DL 1080P

Três Espiãs Demais Bluray 1080p Bluray Remux 4K UHD 2160p HDR

Spoiler

Video
ID : 2
Format : AVC
Format/Info : Advanced Video Codec
Format profile : [email protected]
Format settings : CABAC / 4 Ref Frames
Format settings, CABAC : Yes
Format settings, Reference fra : 4 frames
Codec ID : V_MPEG4/ISO/AVC
Duration : 21 min 16 s
Bit rate : 2 795 kb/s
Width : 1 920 pixels
Height : 1 080 pixels
Display aspect ratio : 16:9
Frame rate mode : Constant
Frame rate : 25.000 FPS
Color space : YUV
Chroma subsampling : 4:2:0
Bit depth : 8 bits
Scan type : Progressive
Bits/(Pixel*Frame) : 0.054
Stream size : 425 MiB (89%)
Title : S02E01 – A Spy is Born Part 2
Language : English
Default : Yes
Forced : Yes
Color range : Limited
Color primaries : BT.709
Transfer characteristics : BT.709
Matrix coefficients : BT.709

Audio #1
ID : 1
Format : MPEG Audio
Format version : Version 1
Format profile : Layer 3
Codec ID : A_MPEG/L3
Codec ID/Hint : MP3
Duration : 21 min 16 s
Bit rate mode : Constant
Bit rate : 128 kb/s
Channel(s) : 2 channels
Sampling rate : 44.1 kHz
Frame rate : 38.281 FPS (1152 SPF)
Compression mode : Lossy
Stream size : 19.5 MiB (4%)
Title : Dublado[ThePowerSeries]
Language : Portuguese
Default : Yes
Forced : Yes

Audio #2
ID : 3
Format : E-AC-3
Format/Info : Enhanced AC-3
Commercial name : Dolby Digital Plus
Codec ID : A_EAC3
Duration : 21 min 16 s
Bit rate mode : Constant
Bit rate : 224 kb/s
Channel(s) : 2 channels
Channel layout : L R
Sampling rate : 48.0 kHz
Frame rate : 31.250 FPS (1536 SPF)
Compression mode : Lossy
Stream size : 34.1 MiB (7%)
Title : English
Language : English
Service kind : Complete Main
Default : No
Forced : No


BaixarBluray.net / Siga-nos no Twitter

Três Espiãs Demais Bluray 1080p Bluray Remux 4K UHD 2160p HDR

Updated: 20 de setembro de 2022 — 15:01

Deixe um comentário

O seu endereço de e-mail não será publicado.

BaixarTurbo © 2018