Scooby-Doo – E A Caçada Virtual

FICHA TÉCNICA

Título Original: Scooby-Doo And The Cyber Chase
Diretor: Jim Stenstrum
Genero: Animação / Aventura / Comédia
Ano de Lançamento: 2001
Qualidade: Bluray 1080P
Formato: MKV
Áudio: Dual Áudio
Legenda: Embutida (selecionável)
Tamanho: 7,2 GB
Tempo de Duração: 01:15:00

Sinopse: Sinopse : Scooby-Doo e sua gangue ficam presos dentro um videogame. Eles seguem a trilha de lanches do Scooby até a última fase e encontram uma turma virtual com a aparência igual a deles. A turma decide ajudá-los a vencer o vírus fantasma.

banner

bannerScott Innes – Scooby-Doo / Shaggy Rogers (voice)
Joe Alaskey – Officer Wembley (voice)
Bob Bergen – Eric Staufer (voice)
Grey DeLisle – Daphne Blake (voice)
Tom Kane – Professor Robert Kaufman (voice)
Mikey Kelley – Bill McLemore (voice)

Bluray 1080P

banner

Scooby-Doo - E A Caçada Virtual Bluray 1080p Bluray Remux 4K UHD 2160p HDR

Spoiler

Video
ID : 1
Format : AVC
Format/Info : Advanced Video Codec
Format profile : [email protected]
Format settings : CABAC / 4 Ref Frames
Format settings, CABAC : Yes
Format settings, Reference fra : 4 frames
Codec ID : V_MPEG4/ISO/AVC
Duration : 1 h 13 min
Bit rate : 11.3 Mb/s
Width : 1 440 pixels
Height : 1 080 pixels
Display aspect ratio : 4:3
Frame rate mode : Constant
Frame rate : 23.976 (24000/1001) FPS
Color space : YUV
Chroma subsampling : 4:2:0
Bit depth : 8 bits
Scan type : Progressive
Bits/(Pixel*Frame) : 0.303
Stream size : 5.79 GiB (81%)
Writing library : x264 core 115 r1936 7a9e08d
Encoding settings : cabac=1 / ref=4 / deblock=1:-1:-1 / analyse=0x3:0x112 / me=umh / subme=7 / psy=1 / psy_rd=1.00:0.00 / mixed_ref=1 / me_range=16 / chroma_me=1 / trellis=1 / 8x8dct=1 / cqm=0 / deadzone=21,11 / fast_pskip=1 / chroma_qp_offset=-2 / threads=12 / sliced_threads=0 / nr=0 / decimate=1 / interlaced=0 / bluray_compat=0 / constrained_intra=0 / bframes=3 / b_pyramid=2 / b_adapt=2 / b_bias=0 / direct=1 / weightb=1 / open_gop=0 / weightp=2 / keyint=250 / keyint_min=23 / scenecut=40 / intra_refresh=0 / rc_lookahead=40 / rc=2pass / mbtree=1 / bitrate=11305 / ratetol=1.0 / qcomp=0.60 / qpmin=0 / qpmax=69 / qpstep=4 / cplxblur=20.0 / qblur=0.5 / ip_ratio=1.40 / aq=1:1.00
Language : English
Default : Yes
Forced : No

Audio #1
ID : 2
Format : AC-3
Format/Info : Audio Coding 3
Commercial name : Dolby Digital
Format settings : Dolby Surround
Codec ID : A_AC3
Duration : 1 h 13 min
Bit rate mode : Constant
Bit rate : 192 kb/s
Channel(s) : 2 channels
Channel layout : L R
Sampling rate : 48.0 kHz
Frame rate : 31.250 FPS (1536 SPF)
Compression mode : Lossy
Stream size : 101 MiB (1%)
Language : Portuguese
Service kind : Complete Main
Default : Yes
Forced : No

Audio #2
ID : 3
Format : AC-3
Format/Info : Audio Coding 3
Commercial name : Dolby Digital
Codec ID : A_AC3
Duration : 1 h 13 min
Bit rate mode : Constant
Bit rate : 384 kb/s
Channel(s) : 2 channels
Channel layout : L R
Sampling rate : 48.0 kHz
Frame rate : 31.250 FPS (1536 SPF)
Compression mode : Lossy
Stream size : 201 MiB (3%)
Title : Latino AC-3 2.0
Language : Spanish
Service kind : Complete Main
Default : Yes
Forced : No

Audio #3
ID : 4
Format : DTS
Format/Info : Digital Theater Systems
Codec ID : A_DTS
Duration : 1 h 13 min
Bit rate mode : Constant
Bit rate : 1 509 kb/s
Channel(s) : 6 channels
Channel layout : C L R Ls Rs LFE
Sampling rate : 48.0 kHz
Frame rate : 93.750 FPS (512 SPF)
Bit depth : 24 bits
Compression mode : Lossy
Stream size : 791 MiB (11%)
Title : Ingles
Language : English
Default : No
Forced : No

Audio #4
ID : 5
Format : AC-3
Format/Info : Audio Coding 3
Commercial name : Dolby Digital
Codec ID : A_AC3
Duration : 1 h 13 min
Bit rate mode : Constant
Bit rate : 640 kb/s
Channel(s) : 6 channels
Channel layout : L R C LFE Ls Rs
Sampling rate : 48.0 kHz
Frame rate : 31.250 FPS (1536 SPF)
Compression mode : Lossy
Stream size : 336 MiB (5%)
Title : Ingles
Language : English
Service kind : Complete Main
Default : No
Forced : No

Text #1
ID : 6
Format : UTF-8
Codec ID : S_TEXT/UTF8
Codec ID/Info : UTF-8 Plain Text
Duration : 1 h 13 min
Bit rate : 52 b/s
Count of elements : 736
Stream size : 28.1 KiB (0%)
Title : Latino
Language : Spanish
Default : No
Forced : No

Text #2
ID : 7
Format : UTF-8
Codec ID : S_TEXT/UTF8
Codec ID/Info : UTF-8 Plain Text
Duration : 1 h 5 min
Bit rate : 1 b/s
Count of elements : 25
Stream size : 506 Bytes (0%)
Title : Forzados
Language : Spanish
Default : Yes
Forced : No

Text #3
ID : 8
Format : ASS
Codec ID : S_TEXT/ASS
Codec ID/Info : Advanced Sub Station Alpha
Duration : 20 min 43 s
Bit rate : 37 b/s
Count of elements : 75
Compression mode : Lossless
Stream size : 5.64 KiB (0%)
Language : Portuguese
Default : Yes
Forced : No

Text #4
ID : 9
Format : UTF-8
Codec ID : S_TEXT/UTF8
Codec ID/Info : UTF-8 Plain Text
Duration : 1 h 12 min
Bit rate : 61 b/s
Count of elements : 1091
Stream size : 32.4 KiB (0%)
Language : English
Default : No
Forced : No


BaixarBluray.net / Siga-nos no Twitter

Scooby-Doo - E A Caçada Virtual Bluray 1080p Bluray Remux 4K UHD 2160p HDR

Updated: 20 de setembro de 2022 — 13:36

Deixe um comentário

O seu endereço de e-mail não será publicado.

BaixarTurbo © 2018