O Sexto Sentido – Bluray 1080P Remux – Dual Áudio

FICHA TÉCNICA

Título Original: The Sixth Sense
Diretor: M. Night Shyamalan
Genero: Drama / Suspense
Ano de Lançamento: 1999
Qualidade: Bluray 1080P Remux
Formato: MKV
Idioma: Português/Inglês
Legenda: Embutida (selecionável)
Tamanho: 19.4 GB
Tempo de Duração: 107 Minutos
Qualidade de Vídeo: 10
Qualidade de Áudio: 10
Servidor: BRupload

Sinopse: O psicólogo infantil Malcolm Crowe (Bruce Willis) abraça com dedicação o caso de Cole Sear (Haley Joel Osment). O garoto, de 8 anos, tem dificuldades de entrosamento no colégio e vive paralisado de medo. Malcolm, por sua vez, busca se recuperar de um trauma sofrido anos antes, quando um de seus pacientes se suicidou na sua frente.

banner

banner

Spoiler

Video
ID : 1
Format : AVC
Format/Info : Advanced Video Codec
Format profile : [email protected]
Format settings : CABAC / 3 Ref Frames
Format settings, CABAC : Yes
Format settings, Reference frames : 3 frames
Codec ID : V_MPEG4/ISO/AVC
Duration : 1 h 47 min
Bit rate mode : Variable
Bit rate : 22.9 Mb/s
Maximum bit rate : 40.0 Mb/s
Width : 1 920 pixels
Height : 1 080 pixels
Display aspect ratio : 16:9
Frame rate mode : Constant
Frame rate : 23.976 (24000/1001) FPS
Standard : NTSC
Color space : YUV
Chroma subsampling : 4:2:0
Bit depth : 8 bits
Scan type : Progressive
Bits/(Pixel*Frame) : 0.460
Stream size : 17.1 GiB (88%)
Title : English
Language : English
Default : Yes
Forced : No
Color range : Limited

Audio #1
ID : 2
Format : DTS XLL
Format/Info : Digital Theater Systems
Commercial name : DTS-HD Master Audio
Codec ID : A_DTS
Duration : 1 h 47 min
Bit rate mode : Variable
Bit rate : 2 231 kb/s
Channel(s) : 6 channels
Channel layout : C L R Ls Rs LFE
Sampling rate : 48.0 kHz
Frame rate : 93.750 FPS (512 SPF)
Bit depth : 16 bits
Compression mode : Lossless
Stream size : 1.67 GiB (9%)
Title : English / DTS-HD Master Audio / 5.1 / 48 kHz / 2 232 kbps / 24-bit (DTS Core: 5.1 / 48 kHz / 1509 kbps / 24-bit)
Language : English
Default : Yes
Forced : No

Audio #2
ID : 3
Format : AC-3
Format/Info : Audio Coding 3
Commercial name : Dolby Digital
Codec ID : A_AC3
Duration : 1 h 47 min
Bit rate mode : Constant
Bit rate : 640 kb/s
Channel(s) : 6 channels
Channel layout : L R C LFE Ls Rs
Sampling rate : 48.0 kHz
Frame rate : 31.250 FPS (1536 SPF)
Compression mode : Lossy
Stream size : 492 MiB (2%)
Title : English
Language : English
Service kind : Complete Main
Default : No
Forced : No

Audio #3
ID : 4
Format : AC-3
Format/Info : Audio Coding 3
Commercial name : Dolby Digital
Codec ID : A_AC3
Duration : 1 h 47 min
Bit rate mode : Constant
Bit rate : 192 kb/s
Channel(s) : 2 channels
Channel layout : L R
Sampling rate : 48.0 kHz
Frame rate : 31.250 FPS (1536 SPF)
Compression mode : Lossy
Delay relative to video : 800 ms
Stream size : 147 MiB (1%)
Language : Portuguese
Service kind : Complete Main
Default : No
Forced : No

bannerBruce Willis
Haley Joel Osment
Toni Collette
Olivia Williams

Bluray 1080P Remux

banner

Updated: 15 de novembro de 2019 — 11:04

Deixe uma resposta

O seu endereço de e-mail não será publicado. Campos obrigatórios são marcados com *

BaixarTurbo © 2018