Nós – Bluray 4K UHD 2160P Remux – Dual Áudio

FICHA TÉCNICA

Título Original: US
Diretor: Jordan Peele
Genero: Suspense / Terror
Ano de Lançamento: 2019
Qualidade: 4K UHD Remux
Formato: MKV
Idioma: Português/Inglês
Legenda: Embutida PGS (selecionável)
Tamanho: 57.5 GB
Tempo de Duração: 116 Minutos
Qualidade de Vídeo: 10
Qualidade de Áudio: 10
Servidor: BRupload

Sinopse: Adelaide (Lupita Nyong’o) e Gabe (Winston Duke) decidem levar a família para passar um fim de semana na praia e descansar em uma casa de veraneio.
Eles viajam com os filhos e começam a aproveitar o ensolarado local, mas a chegada de um grupo misterioso instaura o caos.

banner

banner

Spoiler

Unique ID : 242407846323044806190071700906514718630 (0xB65E0D915444666DA1AACDBF42DA1FA6)
Complete name : D:Us.2019.2160p.UHD.BluRay.REMUX.Dual.Hiro360.mkv
Format : Matroska
Format version : Version 4
File size : 57.6 GiB
Duration : 1 h 56 min
Overall bit rate mode : Variable
Overall bit rate : 70.8 Mb/s
Movie name : Us (2019)
Encoded date : UTC 2019-07-18 15:26:36
Writing application : mkvmerge v9.0.1 (‘Obstacles’) 64bit
Writing library : libebml v1.3.3 + libmatroska v1.4.4

Video
ID : 1
Format : HEVC
Format/Info : High Efficiency Video Coding
Format profile : Main [email protected]@High
HDR format : SMPTE ST 2086, HDR10 compatible
Codec ID : V_MPEGH/ISO/HEVC
Duration : 1 h 56 min
Bit rate : 65.9 Mb/s
Width : 3 840 pixels
Height : 2 160 pixels
Display aspect ratio : 16:9
Frame rate mode : Constant
Frame rate : 23.976 (24000/1001) FPS
Color space : YUV
Chroma subsampling : 4:2:0 (Type 2)
Bit depth : 10 bits
Bits/(Pixel*Frame) : 0.331
Stream size : 53.6 GiB (93%)
Title : MPEG-H HEVC Video / 65857 kbps / 2160p / 23.976 fps / 16:9 / Main 10 Profile 5.1 High / 4:2:0 / 10 bits / HDR10 / BT.2020
Language : English
Default : Yes
Forced : No
Color range : Limited
Color primaries : BT.2020
Transfer characteristics : PQ
Matrix coefficients : BT.2020 non-constant
Mastering display color primaries : Display P3
Mastering display luminance : min: 0.0010 cd/m2, max: 1000 cd/m2
Maximum Content Light Level : 968 cd/m2
Maximum Frame-Average Light Level : 840 cd/m2

Audio #1
ID : 2
Format : MLP FBA 16-ch
Format/Info : Meridian Lossless Packing FBA with 16-channel presentation
Commercial name : Dolby TrueHD with Dolby Atmos
Codec ID : A_TRUEHD
Duration : 1 h 56 min
Bit rate mode : Variable
Bit rate : 3 177 kb/s
Maximum bit rate : 4 872 kb/s
Channel(s) : 8 channels
Channel layout : L R C LFE Ls Rs Lb Rb
Sampling rate : 48.0 kHz
Frame rate : 1 200.000 FPS (40 SPF)
Compression mode : Lossless
Stream size : 2.58 GiB (4%)
Title : Dolby Atmos/TrueHD Audio / 7.1 / 48 kHz / 3625 kbps / 16-bit
Language : English
Default : Yes
Forced : No
Number of dynamic objects : 11
Bed channel count : 1 channel
Bed channel configuration : LFE

Audio #2
ID : 3
Format : AC-3
Format/Info : Audio Coding 3
Commercial name : Dolby Digital
Codec ID : A_AC3
Duration : 1 h 56 min
Bit rate mode : Constant
Bit rate : 448 kb/s
Channel(s) : 6 channels
Channel layout : L R C LFE Ls Rs
Sampling rate : 48.0 kHz
Frame rate : 31.250 FPS (1536 SPF)
Bit depth : 16 bits
Compression mode : Lossy
Stream size : 373 MiB (1%)
Title : Compatibility Track / Dolby Digital Audio / 5.1 / 48 kHz / 448 kbps
Language : English
Service kind : Complete Main
Default : No
Forced : No

Audio #3
ID : 4
Format : E-AC-3
Format/Info : Enhanced AC-3
Commercial name : Dolby Digital Plus
Format profile : Blu-ray Disc
Codec ID : A_EAC3
Duration : 1 h 56 min
Bit rate mode : Constant
Bit rate : 768 kb/s
Channel(s) : 6 channels
Channel(s)_Original : 8 channels
ChannelLayout_Original : L R C LFE Ls Rs Lrs Rrs
Sampling rate : 48.0 kHz
Frame rate : 31.250 FPS (1536 SPF)
Compression mode : Lossy
Stream size : 640 MiB (1%)
Title : Surround 7.1
Language : Portuguese
Service kind : Complete Main
Default : No
Forced : No

Audio #4
ID : 5
Format : AC-3
Format/Info : Audio Coding 3
Commercial name : Dolby Digital
Codec ID : A_AC3
Duration : 1 h 56 min
Bit rate mode : Constant
Bit rate : 448 kb/s
Channel(s) : 6 channels
Channel layout : L R C LFE Ls Rs
Sampling rate : 48.0 kHz
Frame rate : 31.250 FPS (1536 SPF)
Bit depth : 16 bits
Compression mode : Lossy
Stream size : 373 MiB (1%)
Title : Surround 5.1
Language : Portuguese
Service kind : Complete Main
Default : No
Forced : No

Text #1
ID : 6
Format : PGS
Muxing mode : zlib
Codec ID : S_HDMV/PGS
Codec ID/Info : Picture based subtitle format used on BDs/HD-DVDs
Duration : 1 h 55 min
Bit rate : 14.6 kb/s
Count of elements : 2096
Stream size : 12.1 MiB (0%)
Language : Portuguese
Default : No
Forced : No

Text #2
ID : 7
Format : PGS
Muxing mode : zlib
Codec ID : S_HDMV/PGS
Codec ID/Info : Picture based subtitle format used on BDs/HD-DVDs
Duration : 1 h 55 min
Bit rate : 532 b/s
Count of elements : 60
Stream size : 450 KiB (0%)
Language : Portuguese
Default : No
Forced : No

bannerLupita Nyong’o … Adelaide Wilson / Red
Winston Duke … Gabe Wilson / Abraham
Elisabeth Moss … Kitty Tyler / Dahlia
Tim Heidecker … Josh Tyler / Tex

Bluray 4K UHD

banner

Updated: 18 de julho de 2019 — 12:46

Deixe uma resposta

O seu endereço de e-mail não será publicado. Campos obrigatórios são marcados com *

BaixarTurbo © 2018