Nós – Bluray 1080P Remux – Dual Áudio

 

FICHA TÉCNICA

Título Original: US
Diretor: Jordan Peele
Genero: Suspense / Terror
Ano de Lançamento: 2019
Qualidade: Bluray 1080P Remux
Formato: MKV
Idioma: Português/Inglês
Legenda: Embutida PGS (selecionável)
Tamanho: 27.7 GB
Tempo de Duração: 116 Minutos
Qualidade de Vídeo: 10
Qualidade de Áudio: DTS 7.1 + 5.1

Sinopse: Adelaide (Lupita Nyong’o) e Gabe (Winston Duke) decidem levar a família para passar um fim de semana na praia e descansar em uma casa de veraneio.
Eles viajam com os filhos e começam a aproveitar o ensolarado local, mas a chegada de um grupo misterioso instaura o caos.

banner

bannerLupita Nyong’o … Adelaide Wilson / Red
Winston Duke … Gabe Wilson / Abraham
Elisabeth Moss … Kitty Tyler / Dahlia
Tim Heidecker … Josh Tyler / Tex

banner

Spoiler
border=’0′ />Unique ID : 144739603339450315404916916097605711414 (0x6CE3D5682FE0C30E4B40685141503636)
Complete name : D:Us.2019.BluRay.1080p.Atmos.TrueHD.7.1.Dual.Hiro360.mkv
Format : Matroska
Format version : Version 2
File size : 27.8 GiB
Duration : 1 h 56 min
Overall bit rate mode : Variable
Overall bit rate : 34.2 Mb/s
Movie name : Us
Encoded date : UTC 2019-07-18 14:33:17
Writing application : MakeMKV v1.14.2 win(x64-release)
Writing library : libmakemkv v1.14.2 (1.3.5/1.4.7) win(x64-release)

Video
ID : 1
ID in the original source medium : 4113 (0x1011)
Format : AVC
Format/Info : Advanced Video Codec
Format profile : [email protected]
Format settings : CABAC / 4 Ref Frames
Format settings, CABAC : Yes
Format settings, Reference frames : 4 frames
Codec ID : V_MPEG4/ISO/AVC
Duration : 1 h 56 min
Bit rate mode : Variable
Bit rate : 29.3 Mb/s
Maximum bit rate : 32.7 Mb/s
Width : 1 920 pixels
Height : 1 080 pixels
Display aspect ratio : 16:9
Frame rate mode : Constant
Frame rate : 23.976 (24000/1001) FPS
Color space : YUV
Chroma subsampling : 4:2:0
Bit depth : 8 bits
Scan type : Progressive
Bits/(Pixel*Frame) : 0.589
Stream size : 23.8 GiB (86%)
Language : English
Default : No
Forced : No
Original source medium : Blu-ray

Audio #1
ID : 2
ID in the original source medium : 4352 (0x1100)
Format : MLP FBA 16-ch
Format/Info : Meridian Lossless Packing FBA with 16-channel presentation
Commercial name : Dolby TrueHD with Dolby Atmos
Codec ID : A_TRUEHD
Duration : 1 h 56 min
Bit rate mode : Variable
Bit rate : 3 177 kb/s
Maximum bit rate : 4 872 kb/s
Channel(s) : 8 channels
Channel layout : L R C LFE Ls Rs Lb Rb
Sampling rate : 48.0 kHz
Frame rate : 1 200.000 FPS (40 SPF)
Bit depth : 24 bits
Compression mode : Lossless
Stream size : 2.58 GiB (9%)
Title : Surround 7.1
Language : English
Default : Yes
Forced : No
Original source medium : Blu-ray
Number of dynamic objects : 11
Bed channel count : 1 channel
Bed channel configuration : LFE

Audio #2
ID : 3
ID in the original source medium : 4352 (0x1100)
Format : AC-3
Format/Info : Audio Coding 3
Commercial name : Dolby Digital
Codec ID : A_AC3
Duration : 1 h 56 min
Bit rate mode : Constant
Bit rate : 448 kb/s
Channel(s) : 6 channels
Channel layout : L R C LFE Ls Rs
Sampling rate : 48.0 kHz
Frame rate : 31.250 FPS (1536 SPF)
Bit depth : 16 bits
Compression mode : Lossy
Stream size : 373 MiB (1%)
Title : Surround 5.1
Language : English
Service kind : Complete Main
Default : No
Forced : No
Original source medium : Blu-ray

Audio #3
ID : 4
Format : E-AC-3
Format/Info : Enhanced AC-3
Commercial name : Dolby Digital Plus
Format profile : Blu-ray Disc
Codec ID : A_EAC3
Duration : 1 h 56 min
Bit rate mode : Constant
Bit rate : 768 kb/s
Channel(s) : 8 channels
Channel layout : L R C LFE Ls Rs Lb Rb
Sampling rate : 48.0 kHz
Frame rate : 31.250 FPS (1536 SPF)
Compression mode : Lossy
Stream size : 640 MiB (2%)
Title : Surround 7.1
Language : Portuguese
Service kind : Complete Main
Default : No
Forced : No

Audio #4
ID : 5
ID in the original source medium : 4354 (0x1102)
Format : AC-3
Format/Info : Audio Coding 3
Commercial name : Dolby Digital
Codec ID : A_AC3
Duration : 1 h 56 min
Bit rate mode : Constant
Bit rate : 448 kb/s
Channel(s) : 6 channels
Channel layout : L R C LFE Ls Rs
Sampling rate : 48.0 kHz
Frame rate : 31.250 FPS (1536 SPF)
Bit depth : 16 bits
Compression mode : Lossy
Stream size : 373 MiB (1%)
Title : Surround 5.1
Language : Portuguese
Service kind : Complete Main
Default : No
Forced : No
Original source medium : Blu-ray

Text #1
ID : 6
ID in the original source medium : 4610 (0x1202)
Format : PGS
Codec ID : S_HDMV/PGS
Codec ID/Info : Picture based subtitle format used on BDs/HD-DVDs
Duration : 1 h 55 min
Bit rate : 25.5 kb/s
Count of elements : 2096
Stream size : 21.0 MiB (0%)
Language : Portuguese
Default : No
Forced : No
Original source medium : Blu-ray

Text #2
ID : 8
ID in the original source medium : 4617 (0x1209)
Format : PGS
Codec ID : S_HDMV/PGS
Codec ID/Info : Picture based subtitle format used on BDs/HD-DVDs
Duration : 1 h 55 min
Bit rate : 958 b/s
Count of elements : 60
Stream size : 811 KiB (0%)
Language : Portuguese
Default : No
Forced : No
Original source medium : Blu-ray

Bluray 1080P Remux

banner

Updated: 18 de julho de 2019 — 12:22

Deixe uma resposta

O seu endereço de e-mail não será publicado. Campos obrigatórios são marcados com *

BaixarTurbo © 2018