Naruto – Série Clássica

FICHA TÉCNICA

Título Original: Naruto
Diretor: Diversas
Genero: Ação, Luta, Aventura
Ano de Lançamento: 2002
Tipo de Áudio: Dual Áudio
Legenda: Embutida (selecionável)
Tamanho: 20 GB
Tempo de Duração: 23 minutos
Qualidade: BD-Rip 720p
Formato: MKV
Release: BLUDV
Servidor: BRupload

Sinopse: Naruto Uzumaki é um menino que vive em Konohagakure no Sato ou simplesmente Konoha ou Vila Oculta da Folha, a vila ninja do País do Fogo. Quando ainda bebê, Naruto teve aprisionada
em seu corpo a Kyuubi no Youko por Minato Namikaze (quarto Hokage, e seu pai), com a finalidade de salvar a Vila da Folha. Desde então, Naruto é visto por muitas pessoas como um monstro, não só pelos familiares das pessoas mortas pela Kyuubi, mas também por pessoas que não toleram suas brincadeiras, já que o mesmo é extremamente hiperativo, incompreendido e solitário. Naruto sonha em se tornar o Hokage de sua vila, um ninja poderoso e respeitado, para assim poder ser reconhecido por todos. Ele entra na academia ninja, onde sofre com as notas baixas, mas é ajudado por seu professor, Iruka Umino, que posteriormente se torna seu amigo. Consegue finalmente se tornar Gennin, e a partir daí passa a ser ensinado por um Jounin, Kakashi Hatake, e forma uma equipe com Sasuke Uchiha (que no começo não se dão bem) e Sakura Haruno, sua grande paixão.

banner

bannerPersonagem de anime

Bluray 1080P

Download Naruto  [Naruto ] Bluray 1080P

Mediainfo Naruto  [Naruto ] Bluray 1080P

Spoiler

Video
ID : 1
Format : AVC
Format/Info : Advanced Video Codec
Format profile : [email protected]
Format settings : CABAC / 4 Ref Frames
Format settings, CABAC : Yes
Format settings, Reference : 4 frames
Muxing mode : Header stripping
Codec ID : V_MPEG4/ISO/AVC
Duration : 23 min 35 s
Bit rate : 1 395 kb/s
Width : 1 280 pixels
Height : 960 pixels
Display aspect ratio : 4:3
Frame rate mode : Constant
Frame rate : 29.970 FPS
Color space : YUV
Chroma subsampling : 4:2:0
Bit depth : 8 bits
Scan type : Progressive
Bits/(Pixel*Frame) : 0.038
Stream size : 230 MiB (74%)
Writing library : x264 core 93 r1538bm bd72d46
Encoding settings : cabac=1 / ref=3 / deblock=1:1:2 / analyse=0x3:0x113 / me=umh / subme=6 / psy=1 / psy_rd=0.00:0.00 / mixed_ref=1 / me_range=16 / chroma_me=1 / trellis=0 / 8x8dct=1 / cqm=0 / deadzone=21,11 / fast_pskip=1 / chroma_qp_offset=0 / threads=6 / sliced_threads=1 / slices=6 / nr=0 / decimate=1 / interlaced=0 / constrained_intra=0 / bframes=3 / b_pyramid=2 / b_adapt=2 / b_bias=0 / direct=1 / wpredb=1 / wpredp=2 / keyint=250 / keyint_min=25 / scenecut=40 / intra_refresh=0 / rc_lookahead=60 / rc=2pass / mbtree=1 / bitrate=1395 / ratetol=1.0 / qcomp=0.60 / qpmin=10 / qpmax=51 / qpstep=4 / cplxblur=20.0 / qblur=0.5 / ip_ratio=1.40 / aq=1:1.00
Default : Yes
Forced : No

Audio #1
ID : 2
Format : MPEG Audio
Format version : Version 1
Format profile : Layer 3
Format settings : Joint stereo / MS Stereo
Muxing mode : Header stripping
Codec ID : A_MPEG/L3
Codec ID/Hint : MP3
Duration : 23 min 35 s
Bit rate mode : Variable
Bit rate : 192 kb/s
Channel(s) : 2 channels
Sampling rate : 44.1 kHz
Frame rate : 38.281 FPS (1152 SPF)
Compression mode : Lossy
Stream size : 32.4 MiB (10%)
Writing library : LAME3.98.4
Language : Portuguese
Default : Yes
Forced : No

Audio #2
ID : 3
Format : AC-3
Format/Info : Audio Coding 3
Commercial name : Dolby Digital
Muxing mode : Header stripping
Codec ID : A_AC3
Duration : 23 min 35 s
Bit rate mode : Constant
Bit rate : 256 kb/s
Channel(s) : 2 channels
Channel layout : L R
Sampling rate : 48.0 kHz
Frame rate : 31.250 FPS (1536 SPF)
Compression mode : Lossy
Delay relative to video : 45 ms
Stream size : 43.2 MiB (14%)
Language : Japanese
Service kind : Complete Main
Default : No
Forced : No

Updated: 18 de janeiro de 2022 — 12:54

Deixe uma resposta

O seu endereço de e-mail não será publicado. Campos obrigatórios são marcados com *

BaixarTurbo © 2018