InuYasha : Coleção Filmes

FICHA TÉCNICA

Título Original: Inuyasha
Diretor: Rumiko Takahashi
Genero: Luta / Ação
Ano de Lançamento: 2001 – 2004
Qualidade: Remux 1080p
Formato: MKV
Áudio: Dual Áudio
Legenda: Embutida (selecionável)
Tamanho: 65 gb
Tempo de Duração: 90 minutos

Sinopse: Inu-Yasha dominou o ataque final do Tetsusaiga e continua sua batalha pelos fragmentos de Shikon Jewel com Kagome, Shippo, Sango e Miroku. Infelizmente, uma ocorrência estranha com um fragmento de jóia trouxe à vida uma encarnação de um inimigo demoníaco selado pelo pai de Inu-Yashas. Inu-Yasha deve superar seu pai e destruir este demônio ou toda alma no Japão será consumida.

banner

bannerPersonagens de anime

Bluray 1080P Remux

banner

Inuyasha Bluray 1080p Bluray Remux 4K UHD 2160p HDR

Spoiler

General
Unique ID : 204065860549730843928477409433074353510 (0x9985A7B7A5BF159474571CA01C314566)
Complete name : D:\2001 – InuYasha – Filme 01 – [Sentimentos que Transcendem o Tempo]\2001 – InuYasha – Filme 01 – [Sentimentos que Transcendem o Tempo].mkv
Format : Matroska
Format version : Version 4
File size : 17.1 GiB
Duration : 1 h 40 min
Overall bit rate mode : Variable
Overall bit rate : 24.5 Mb/s
Encoded date : UTC 2021-11-08 21:34:54
Writing application : mkvmerge v61.0.0 (‘So’) 64-bit
Writing library : libebml v1.4.2 + libmatroska v1.6.4
Attachments : Calligraphic 421 BT.ttf / Dbbrnms.ttf / FRGROT.TTF / Fuzzymate.ttf / Karaokebv.ttf / PP Handwriting Normal.ttf / proseantique.ttf / SCREWBAL_0.ttf / Calligraphic 421 BT_0.ttf / Dbbrnms_0.ttf / FRGROT_0.TTF / Fuzzymate_0.ttf / Karaokebv_0.ttf / PP Handwriting Normal_0.ttf / proseantique_0.ttf / SCREWBAL_0_0.ttf

Video
ID : 1
Format : AVC
Format/Info : Advanced Video Codec
Format profile : [email protected]
Format settings : CABAC / 4 Ref Frames
Format settings, CABAC : Yes
Format settings, Reference : 4 frames
Codec ID : V_MPEG4/ISO/AVC
Duration : 1 h 40 min
Bit rate mode : Variable
Bit rate : 20.0 Mb/s
Maximum bit rate : 35.0 Mb/s
Width : 1 920 pixels
Height : 1 080 pixels
Display aspect ratio : 16:9
Frame rate mode : Constant
Frame rate : 29.970 (30000/1001) FPS
Standard : NTSC
Color space : YUV
Chroma subsampling : 4:2:0
Bit depth : 8 bits
Scan type : MBAFF
Scan type, store method : Interleaved fields
Scan order : Top Field First
Bits/(Pixel*Frame) : 0.322
Stream size : 14.0 GiB (82%)
Language : Japanese
Default : Yes
Forced : No
Color range : Limited
Color primaries : BT.709
Transfer characteristics : BT.709
Matrix coefficients : BT.709

Audio #1
ID : 2
Format : AC-3
Format/Info : Audio Coding 3
Commercial name : Dolby Digital
Codec ID : A_AC3
Duration : 1 h 40 min
Bit rate mode : Constant
Bit rate : 224 kb/s
Channel(s) : 2 channels
Channel layout : L R
Sampling rate : 48.0 kHz
Frame rate : 31.250 FPS (1536 SPF)
Compression mode : Lossy
Stream size : 160 MiB (1%)
Title : Áudio PT-BR – AC3 – [Remasterizado por YusukeFLA]
Language : Portuguese
Service kind : Complete Main
Default : Yes
Forced : No

Audio #2
ID : 3
Format : DTS XLL
Format/Info : Digital Theater Systems
Commercial name : DTS-HD Master Audio
Codec ID : A_DTS
Duration : 1 h 40 min
Bit rate mode : Variable
Bit rate : 2 036 kb/s
Channel(s) : 6 channels
Channel layout : C L R Ls Rs LFE
Sampling rate : 48.0 kHz
Frame rate : 93.750 FPS (512 SPF)
Bit depth : 16 bits
Compression mode : Lossless
Stream size : 1.42 GiB (8%)
Title : Áudio JPN – [DTS-HD]
Language : Japanese
Default : No
Forced : No

Audio #3
ID : 4
Format : DTS XLL
Format/Info : Digital Theater Systems
Commercial name : DTS-HD Master Audio
Codec ID : A_DTS
Duration : 1 h 40 min
Bit rate mode : Variable
Bit rate : 2 221 kb/s
Channel(s) : 6 channels
Channel layout : C L R Ls Rs LFE
Sampling rate : 48.0 kHz
Frame rate : 93.750 FPS (512 SPF)
Bit depth : 16 bits
Compression mode : Lossless
Stream size : 1.55 GiB (9%)
Title : Áudio ENG – [DTS-HD]
Language : English
Default : No
Forced : No

Text #1
ID : 5
Format : PGS
Muxing mode : zlib
Codec ID : S_HDMV/PGS
Codec ID/Info : Picture based subtitle format used on BDs/HD-DVDs
Duration : 1 h 37 min
Bit rate : 22.8 kb/s
Count of elements : 2438
Stream size : 15.9 MiB (0%)
Title : Legenda ENG
Language : English
Default : No
Forced : No

Text #2
ID : 6
Format : ASS
Codec ID : S_TEXT/ASS
Codec ID/Info : Advanced Sub Station Alpha
Duration : 1 h 37 min
Bit rate : 72 b/s
Count of elements : 1132
Compression mode : Lossless
Stream size : 52.0 KiB (0%)
Title : Legenda PT-BR 01 – [YusukeFLA]
Language : Portuguese
Default : Yes
Forced : No

Text #3
ID : 7
Format : SSA
Codec ID : S_TEXT/SSA
Codec ID/Info : Sub Station Alpha
Duration : 1 h 37 min
Bit rate : 89 b/s
Count of elements : 1154
Compression mode : Lossless
Stream size : 64.3 KiB (0%)
Title : Legenda PT-BR 02 – [Shakaw e Aya Fansub]
Language : Portuguese
Default : Yes
Forced : No


BaixarBluray.net / Siga-nos no Twitter

Inuyasha Bluray 1080p Bluray Remux 4K UHD 2160p HDR

Updated: 19 de setembro de 2022 — 15:20

3 Comments

Add a Comment
  1. Boa Noite a todos!

    Show amo esse anime e obrigado mais uma vez por postarem em alta qualidade,kkkkkkkkk

    Abraço.

    1. Boa noite Rodrigo, vou ver se trago o anime completo pra vocês.

      1. Boa Noite Darkseid, estou ansioso por isso e obrigado, Lord Darkseid kkkkkk.

Deixe um comentário

O seu endereço de e-mail não será publicado.

BaixarTurbo © 2018