Dragon Ball – Série Completa

FICHA TÉCNICA

Título Original: Dragon ball
Diretor: Toei Animation
Genero: Ação, Luta, Aventura
Ano de Lançamento: 1984
Tipo de Áudio: Dublado
Legenda: Sem Legenda
Tamanho: 300 MB por episódio / 6 GB por episódio
Tempo de Duração: 23 minutos
Qualidade: BD-Rip 720p / 1080P Remux
Formato: MKV
Release: Gilgamesh / Cannibal
Servidor: BRupload

ADICIONADO VERSÃO REMUX Episódio 16 – 20

Sinopse: É uma franquia de mídia japonesa criada por Akira Toriyama. Originalmente iniciada com uma série de mangá que foi escrita e ilustrada por Toriyama, teve os seus capítulos serializados na revista Weekly Shonen Jump de 1984 a 1995, com os seus 519 capítulos compilados em 42 volumes tankōbon
e publicados pela editora Shueisha. Dragon Ball foi inicialmente inspirado pelo clássico romance chinês Jornada ao Oeste. A série segue as aventuras do protagonista, Son Goku, desde sua infância até a idade adulta enquanto ele treina artes marciais e explora o mundo em busca de sete esferas conhecidas como as Esferas do Dragão, que convocam um dragão que concede um desejo quando reunidas. Ao longo de sua jornada, Goku faz vários amigos e luta contra uma grande variedade de vilões, muitos dos quais também procuram as Esferas do Dragão.

SCREENSHOT REMUX: 1 | 2

banner

BAIXE SEM LIMITES NA VELOCIDADE MÁXIMA: CLIQUE AQUI

bannerPersonagens de anime

Bluray 720P

Download Dragon Ball [Dragon ball] Bluray 1080P

Mediainfo Dragon ball [Dragon Ball] Bluray 1080P

Spoiler

Video
ID : 1
Format : AVC
Format/Info : Advanced Video Codec
Format profile : [email protected]
Format settings : CABAC / 3 Ref Frames
Format settings, CABAC : Yes
Format settings, Reference : 3 frames
Codec ID : V_MPEG4/ISO/AVC
Duration : 24 min 9 s
Nominal bit rate : 1 492 kb/s
Width : 1 280 pixels
Height : 960 pixels
Display aspect ratio : 4:3
Frame rate mode : Constant
Frame rate : 23.976 FPS
Color space : YUV
Chroma subsampling : 4:2:0
Bit depth : 8 bits
Scan type : Progressive
Bits/(Pixel*Frame) : 0.051
Title : Dragon Ball 007
Writing library : x264 core 93 r1538bm bd72d46
Encoding settings : cabac=1 / ref=3 / deblock=1:0:0 / analyse=0x3:0x13 / me=umh / subme=7 / psy=1 / psy_rd=1.00:0.00 / mixed_ref=1 / me_range=16 / chroma_me=1 / trellis=1 / 8x8dct=1 / cqm=0 / deadzone=21,11 / fast_pskip=1 / chroma_qp_offset=-2 / threads=4 / sliced_threads=1 / slices=4 / nr=0 / decimate=1 / interlaced=0 / constrained_intra=0 / bframes=0 / wpredp=2 / keyint=250 / keyint_min=25 / scenecut=40 / intra_refresh=0 / rc_lookahead=40 / rc=2pass / mbtree=1 / bitrate=1492 / ratetol=1.0 / qcomp=0.60 / qpmin=10 / qpmax=51 / qpstep=4 / cplxblur=20.0 / qblur=0.5 / ip_ratio=1.40 / aq=1:1.00
Default : Yes
Forced : No

Audio
ID : 2
Format : AAC LC
Format/Info : Advanced Audio Codec Low Complexity
Codec ID : A_AAC-2
Duration : 24 min 9 s
Channel(s) : 2 channels
Channel layout : L R
Sampling rate : 44.1 kHz
Frame rate : 43.066 FPS (1024 SPF)
Compression mode : Lossy
Default : Yes
Forced : No

Bluray Remux

Download Dragon Ball [Dragon ball] Bluray 1080P

Mediainfo Dragon ball [Dragon Ball] Bluray 1080P

Spoiler

Video
ID : 1
Format : AVC
Format/Info : Advanced Video Codec
Format profile : [email protected]
Format settings : CABAC / 4 Ref Frames
Format settings, CABAC : Yes
Format settings, Reference : 4 frames
Codec ID : V_MPEG4/ISO/AVC
Duration : 24 min 40 s
Bit rate mode : Variable
Bit rate : 27.9 Mb/s
Maximum bit rate : 35.0 Mb/s
Width : 1 920 pixels
Height : 1 080 pixels
Display aspect ratio : 16:9
Frame rate mode : Constant
Frame rate : 23.976 (24000/1001) FPS
Color space : YUV
Chroma subsampling : 4:2:0
Bit depth : 8 bits
Scan type : Progressive
Bits/(Pixel*Frame) : 0.561
Stream size : 4.81 GiB (81%)
Default : Yes
Forced : No

Audio #1
ID : 2
Format : AC-3
Format/Info : Audio Coding 3
Commercial name : Dolby Digital
Codec ID : A_AC3
Duration : 24 min 40 s
Bit rate mode : Constant
Bit rate : 192 kb/s
Channel(s) : 2 channels
Channel layout : L R
Sampling rate : 48.0 kHz
Frame rate : 31.250 FPS (1536 SPF)
Compression mode : Lossy
Stream size : 33.9 MiB (1%)
Title : Dublagem – Álamo
Language : Portuguese
Service kind : Complete Main
Default : Yes
Forced : No

Audio #2
ID : 3
Format : AC-3
Format/Info : Audio Coding 3
Commercial name : Dolby Digital
Codec ID : A_AC3
Duration : 24 min 40 s
Bit rate mode : Constant
Bit rate : 192 kb/s
Channel(s) : 2 channels
Channel layout : L R
Sampling rate : 48.0 kHz
Frame rate : 31.250 FPS (1536 SPF)
Compression mode : Lossy
Stream size : 33.9 MiB (1%)
Title : Dublagem – Gota Mágica
Language : Portuguese
Service kind : Complete Main
Default : No
Forced : No

Audio #3
ID : 4
Format : DTS XLL
Format/Info : Digital Theater Systems
Commercial name : DTS-HD Master Audio
Codec ID : A_DTS
Duration : 24 min 40 s
Bit rate mode : Variable
Bit rate : 960 kb/s
Channel(s) : 2 channels
Channel layout : L R
Sampling rate : 48.0 kHz
Frame rate : 93.750 FPS (512 SPF)
Bit depth : 16 bits
Compression mode : Lossless
Stream size : 171 MiB (3%)
Language : Japanese
Default : No
Forced : No

Audio #4
ID : 5
Format : DTS XLL
Format/Info : Digital Theater Systems
Commercial name : DTS-HD Master Audio
Codec ID : A_DTS
Duration : 24 min 40 s
Bit rate mode : Variable
Bit rate : 960 kb/s
Channel(s) : 2 channels
Channel layout : L R
Sampling rate : 48.0 kHz
Frame rate : 93.750 FPS (512 SPF)
Bit depth : 16 bits
Compression mode : Lossless
Stream size : 171 MiB (3%)
Language : Spanish
Default : No
Forced : No

Audio #5
ID : 6
Format : DTS XLL
Format/Info : Digital Theater Systems
Commercial name : DTS-HD Master Audio
Codec ID : A_DTS
Duration : 24 min 40 s
Bit rate mode : Variable
Bit rate : 1 024 kb/s
Channel(s) : 2 channels
Channel layout : L R
Sampling rate : 48.0 kHz
Frame rate : 93.750 FPS (512 SPF)
Bit depth : 16 bits
Compression mode : Lossless
Stream size : 179 MiB (3%)
Language : Catalan
Default : No
Forced : No

Audio #6
ID : 7
Format : DTS XLL
Format/Info : Digital Theater Systems
Commercial name : DTS-HD Master Audio
Codec ID : A_DTS
Duration : 24 min 40 s
Bit rate mode : Variable
Bit rate : 1 024 kb/s
Channel(s) : 2 channels
Channel layout : L R
Sampling rate : 48.0 kHz
Frame rate : 93.750 FPS (512 SPF)
Bit depth : 16 bits
Compression mode : Lossless
Stream size : 177 MiB (3%)
Language : Basque
Default : No
Forced : No

Audio #7
ID : 8
Format : DTS XLL
Format/Info : Digital Theater Systems
Commercial name : DTS-HD Master Audio
Codec ID : A_DTS
Duration : 24 min 40 s
Bit rate mode : Variable
Bit rate : 960 kb/s
Channel(s) : 2 channels
Channel layout : L R
Sampling rate : 48.0 kHz
Frame rate : 93.750 FPS (512 SPF)
Bit depth : 16 bits
Compression mode : Lossless
Stream size : 172 MiB (3%)
Language : vai
Default : No
Forced : No

Audio #8
ID : 9
Format : DTS XLL
Format/Info : Digital Theater Systems
Commercial name : DTS-HD Master Audio
Codec ID : A_DTS
Duration : 24 min 40 s
Bit rate mode : Variable
Bit rate : 1 024 kb/s
Channel(s) : 2 channels
Channel layout : L R
Sampling rate : 48.0 kHz
Frame rate : 93.750 FPS (512 SPF)
Bit depth : 16 bits
Compression mode : Lossless
Stream size : 178 MiB (3%)
Language : Galician
Default : No
Forced : No

Text #1
ID : 10
Format : ASS
Codec ID : S_TEXT/ASS
Codec ID/Info : Advanced Sub Station Alpha
Duration : 18 min 3 s
Bit rate : 9 b/s
Count of elements : 25
Compression mode : Lossless
Stream size : 1.29 KiB (0%)
Title : Português – Forçada – Álamo
Language : Portuguese
Default : Yes
Forced : Yes

Text #2
ID : 11
Format : ASS
Codec ID : S_TEXT/ASS
Codec ID/Info : Advanced Sub Station Alpha
Duration : 18 min 3 s
Bit rate : 9 b/s
Count of elements : 25
Compression mode : Lossless
Stream size : 1.29 KiB (0%)
Title : Português – Forçada – Gota Mágica
Language : Portuguese
Default : No
Forced : No

Text #3
ID : 12
Format : ASS
Codec ID : S_TEXT/ASS
Codec ID/Info : Advanced Sub Station Alpha
Duration : 24 min 28 s
Bit rate : 97 b/s
Count of elements : 338
Compression mode : Lossless
Stream size : 17.5 KiB (0%)
Title : Português – Completa
Language : Portuguese
Default : No
Forced : No

Text #4
ID : 13
Format : PGS
Muxing mode : zlib
Codec ID : S_HDMV/PGS
Codec ID/Info : Picture based subtitle format used on BDs/HD-DVDs
Duration : 22 min 15 s
Bit rate : 1 534 b/s
Count of elements : 22
Stream size : 250 KiB (0%)
Language : Spanish
Default : No
Forced : No

Text #5
ID : 14
Format : PGS
Muxing mode : zlib
Codec ID : S_HDMV/PGS
Codec ID/Info : Picture based subtitle format used on BDs/HD-DVDs
Duration : 22 min 15 s
Bit rate : 1 413 b/s
Count of elements : 22
Stream size : 230 KiB (0%)
Language : Catalan
Default : No
Forced : No

Text #6
ID : 15
Format : PGS
Muxing mode : zlib
Codec ID : S_HDMV/PGS
Codec ID/Info : Picture based subtitle format used on BDs/HD-DVDs
Duration : 22 min 15 s
Bit rate : 1 534 b/s
Count of elements : 22
Stream size : 250 KiB (0%)
Language : Basque
Default : No
Forced : No

Text #7
ID : 16
Format : PGS
Muxing mode : zlib
Codec ID : S_HDMV/PGS
Codec ID/Info : Picture based subtitle format used on BDs/HD-DVDs
Duration : 22 min 15 s
Bit rate : 1 534 b/s
Count of elements : 22
Stream size : 250 KiB (0%)
Language : vai
Default : No
Forced : No

Text #8
ID : 17
Format : PGS
Muxing mode : zlib
Codec ID : S_HDMV/PGS
Codec ID/Info : Picture based subtitle format used on BDs/HD-DVDs
Duration : 22 min 15 s
Bit rate : 1 534 b/s
Count of elements : 22
Stream size : 250 KiB (0%)
Language : Galician
Default : No
Forced : No

Text #9
ID : 18
Format : PGS
Muxing mode : zlib
Codec ID : S_HDMV/PGS
Codec ID/Info : Picture based subtitle format used on BDs/HD-DVDs
Duration : 24 min 27 s
Bit rate : 34.8 kb/s
Count of elements : 534
Stream size : 6.09 MiB (0%)
Language : Spanish
Default : No
Forced : No

Updated: 2 de março de 2022 — 19:10

2 Comments

Add a Comment
  1. Olá amigo boa noite… Vc vai continuar com o projeto 1080p Remux…?

    1. O uploader que fazia o post não posta mais conosco amigo.

Deixe uma resposta

O seu endereço de e-mail não será publicado. Campos obrigatórios são marcados com *

BaixarTurbo © 2018