Dragon Ball Z – Filmes Coleção

FICHA TÉCNICA

Título Original: Dragon Ball Z
Diretor: Akira
Genero: 145 Gb
Ano de Lançamento: 1987 – até hoje
Qualidade: Remux
Formato: MKV
Áudio: Dual Áudio
Legenda: Embutida (selecionável)
Tamanho: Varia
Tempo de Duração: Varia

Sinopse: Dragon Ball Z – Todos os Filmes – OVA O retorno de Goku e seus amigos 1080p – OVA Gohan e Trunks Guerreiros do futuro Remux – Filme 1 Devolva meu Gohan Remux – Filme 2 O Homem mais Forte do Mundo Remux – Filme 3 A Árvore do Poder Remux – Filme 4 Lord Slug Remux – Filme 5 A Vingança de Cooler Remux – Filme 6 O Retorno de Cooler Remux – Filme 7 Super Android 13 batalha extrema Remux – Filme 8 Broly, o lendário Super Saiyajin Remux – Filme 9 O Surgimento de Bojack Remux – Filme 10 O Retorno do guerreiro lendário broly 1080p – Filme 11 O combate final: Bio Broly 1080p – Filme 12 O Renascimento da fusão Remux – Filme 13 O ataque do dragão 1080p – Filme 14 A batalha dos Deuses Remux – Filme 15 O Renascimento de freeza Remux – Filme 16 Super Brolly Remux 4K

banner

bannerPersonagens de Anime

Bluray 1080P Remux

banner

Dragon Ball Z Bluray 1080p Bluray Remux 4K UHD 2160p HDR

Spoiler

General
Unique ID : 110613096880392782776328678997196633538 (0x53374EBBBFF6B256B28383B5F4E975C2)
Complete name : D:\dragon ball z filmes remux\1992 – Dragon Ball Z Movie 7 Remux\1992 – Dragon Ball Z Movie 7 Remux.mkv
Format : Matroska
Format version : Version 4
File size : 7.42 GiB
Duration : 46 min 0 s
Overall bit rate mode : Variable
Overall bit rate : 23.1 Mb/s
Movie name : Dragon.Ball.Z.Super.Android.13.1992.BluRay.Remux.1080p.AVC.DTS-HD.MA.5.1-decibeL
Encoded date : UTC 2017-08-15 18:03:18
Writing application : mkvmerge v8.5.2 (‘Crosses’) 32bit
Writing library : libebml v1.3.3 + libmatroska v1.4.4

Video
ID : 1
Format : AVC
Format/Info : Advanced Video Codec
Format profile : High@L4.1
Format settings : CABAC / 4 Ref Frames
Format settings, CABAC : Yes
Format settings, Reference : 4 frames
Codec ID : V_MPEG4/ISO/AVC
Duration : 46 min 0 s
Bit rate mode : Variable
Bit rate : 20.0 Mb/s
Maximum bit rate : 38.0 Mb/s
Width : 1 920 pixels
Height : 1 080 pixels
Display aspect ratio : 16:9
Frame rate mode : Constant
Frame rate : 23.976 (24000/1001) FPS
Color space : YUV
Chroma subsampling : 4:2:0
Bit depth : 8 bits
Scan type : Progressive
Bits/(Pixel*Frame) : 0.402
Stream size : 6.41 GiB (86%)
Title : MPEG-4 AVC Video / 19980 kbps / 1080p / 23.976 fps / 16:9 / High Profile 4.1
Language : English
Default : Yes
Forced : No
Color range : Limited
Color primaries : BT.709
Transfer characteristics : BT.709
Matrix coefficients : BT.709

Audio #1
ID : 2
Format : AC-3
Format/Info : Audio Coding 3
Commercial name : Dolby Digital
Codec ID : A_AC3
Duration : 45 min 59 s
Bit rate mode : Constant
Bit rate : 256 kb/s
Channel(s) : 2 channels
Channel layout : L R
Sampling rate : 48.0 kHz
Frame rate : 31.250 FPS (1536 SPF)
Compression mode : Lossy
Stream size : 84.2 MiB (1%)
Title : Áudio Português-BR AC3 2.0 256 Kbps
Language : Portuguese
Service kind : Complete Main
Default : No
Forced : Yes

Audio #2
ID : 3
Format : DTS XLL
Format/Info : Digital Theater Systems
Commercial name : DTS-HD Master Audio
Codec ID : A_DTS
Duration : 46 min 0 s
Bit rate mode : Variable
Bit rate : 2 216 kb/s
Channel(s) : 6 channels
Channel layout : C L R Ls Rs LFE
Sampling rate : 48.0 kHz
Frame rate : 93.750 FPS (512 SPF)
Bit depth : 16 bits
Compression mode : Lossless
Stream size : 729 MiB (10%)
Title : DTS-HD Master Audio / English with Japanese Music / 5.1 / 48 kHz / 2217 kbps / 16-bit
Language : English
Default : Yes
Forced : No

Audio #3
ID : 4
Format : AC-3
Format/Info : Audio Coding 3
Commercial name : Dolby Digital
Codec ID : A_AC3
Duration : 46 min 0 s
Bit rate mode : Constant
Bit rate : 640 kb/s
Channel(s) : 1 channel
Channel layout : C
Sampling rate : 48.0 kHz
Frame rate : 31.250 FPS (1536 SPF)
Compression mode : Lossy
Stream size : 211 MiB (3%)
Title : Dolby Digital Audio / Japanese / 640 kbps / 1.0 / 48 kHz / 640 kbps
Language : Japanese
Service kind : Complete Main
Default : No
Forced : No

Text #1
ID : 5
Format : PGS
Muxing mode : zlib
Codec ID : S_HDMV/PGS
Codec ID/Info : Picture based subtitle format used on BDs/HD-DVDs
Duration : 45 min 3 s
Bit rate : 5 474 b/s
Frame rate : 0.200 FPS
Count of elements : 540
Stream size : 1.76 MiB (0%)
Language : English
Default : No
Forced : No

Text #2
ID : 6
Format : ASS
Codec ID : S_TEXT/ASS
Codec ID/Info : Advanced Sub Station Alpha
Duration : 45 min 3 s
Bit rate : 67 b/s
Frame rate : 0.101 FPS
Count of elements : 273
Compression mode : Lossless
Stream size : 22.4 KiB (0%)
Title : Legenda Português-BR (ASS)
Language : Portuguese
Default : Yes
Forced : Yes

Menu
00:00:00.000 : en:00:00:00.000
00:02:47.542 : en:00:02:47.542
00:04:36.651 : en:00:04:36.651
00:09:36.618 : en:00:09:36.618
00:14:47.970 : en:00:14:47.970
00:19:42.848 : en:00:19:42.848
00:24:42.898 : en:00:24:42.898
00:29:41.571 : en:00:29:41.571
00:35:07.105 : en:00:35:07.105
00:40:27.216 : en:00:40:27.216
00:45:55.753 : en:00:45:55.753


BaixarBluray.net / Siga-nos no Twitter

Dragon Ball Z Bluray 1080p Bluray Remux 4K UHD 2160p HDR

Deixe um comentário

O seu endereço de e-mail não será publicado. Campos obrigatórios são marcados com *

BaixarTurbo © 2018