Ben 10

FICHA TÉCNICA

Título Original: Ben 10
Diretor: Willy Junior, Yuri Lowenthal, Greg Cipes e Ashley Johnson
Genero: LutaAventuraAção
Ano de Lançamento: 2005
Tipo de Áudio: Dual Áudio
Legenda: Sem legenda
Tamanho: 10 GB
Tempo de Duração: 23 minutos
Qualidade: WEB-DL 1080
Formato: MKV
Release: BLUDV
uploader: Raoh
Servidor: BRupload

Sinopse: Durante uma aborrecida viagem de férias em companhia de seu avô Max e de prima Gwen, Ben Tennyson, um garoto comum de 10 anos de idade, descobre um estranho objeto alienígena chamado omnitrix trazido para a Terra por um meteorito. E com esta descoberta, a vida de Ben muda drasticamente, conduzindo-o a um mundo de aventuras com o qual ele jamais sonhara. Agora, ele é capaz de se transformar em 10 diferentes heróis alienígenas “incluindo HeatBlast, Upgrade e Four Arms” sempre que precisar salvar o mundo da presença de ameaças extraterrestres como Vilgax e seus Mechadroids; Zombozo, o vampiro psíquico, e o desprezível feiticeiro Hexlord. As aventuras de Ben 10 são de outro mundo. Literalmente!

banner

bannerDiversos

WEB-DL 1080P

Download Ben 10 [Ben 10] WEB-DL 1080P

Mediainfo Ben 10 [Ben 10] WEB-DL 1080P

Spoiler

Video
ID : 2
Format : AVC
Format/Info : Advanced Video Codec
Format profile : [email protected]
Format settings : CABAC / 3 Ref Frames
Format settings, CABAC : Yes
Format settings, Reference : 3 frames
Codec ID : V_MPEG4/ISO/AVC
Duration : 22 min 47 s
Bit rate mode : Variable
Bit rate : 1 800 kb/s
Maximum bit rate : 20.0 Mb/s
Width : 1 920 pixels
Height : 1 080 pixels
Display aspect ratio : 16:9
Frame rate mode : Constant
Frame rate : 23.976 (24000/1001) FPS
Color space : YUV
Chroma subsampling : 4:2:0
Bit depth : 8 bits
Scan type : Progressive
Bits/(Pixel*Frame) : 0.036
Stream size : 293 MiB (84%)
Title : WWW.BLUDV.TV
Writing library : x264 core 148 r2762 90a61ec
Encoding settings : cabac=1 / ref=3 / deblock=1:0:0 / analyse=0x3:0x113 / me=hex / subme=7 / psy=1 / psy_rd=1.00:0.00 / mixed_ref=1 / me_range=16 / chroma_me=1 / trellis=1 / 8x8dct=1 / cqm=0 / deadzone=21,11 / fast_pskip=1 / chroma_qp_offset=-2 / threads=12 / lookahead_threads=2 / sliced_threads=0 / nr=0 / decimate=1 / interlaced=0 / bluray_compat=0 / constrained_intra=0 / bframes=3 / b_pyramid=0 / b_adapt=1 / b_bias=0 / direct=1 / weightb=1 / open_gop=0 / weightp=2 / keyint=96 / keyint_min=24 / scenecut=40 / intra_refresh=0 / rc_lookahead=40 / rc=2pass / mbtree=1 / bitrate=1800 / ratetol=1.0 / qcomp=0.60 / qpmin=0 / qpmax=69 / qpstep=4 / cplxblur=20.0 / qblur=0.5 / vbv_maxrate=20000 / vbv_bufsize=25000 / nal_hrd=vbr / filler=0 / ip_ratio=1.40 / aq=1:1.00
Default : Yes
Forced : No

Audio #1
ID : 1
Format : AC-3
Format/Info : Audio Coding 3
Commercial name : Dolby Digital
Codec ID : A_AC3
Duration : 22 min 43 s
Bit rate mode : Constant
Bit rate : 192 kb/s
Channel(s) : 2 channels
Channel layout : L R
Sampling rate : 48.0 kHz
Frame rate : 31.250 FPS (1536 SPF)
Bit depth : 32 bits
Compression mode : Lossy
Stream size : 20.8 MiB (6%)
Title : WWW.BLUDV.TV
Writing library : Lavc58.35.100 ac3
Language : Portuguese
Service kind : Complete Main
Default : Yes
Forced : No

Audio #2
ID : 3
Format : AAC LC
Format/Info : Advanced Audio Codec Low Complexity
Codec ID : A_AAC-2
Duration : 22 min 47 s
Bit rate : 157 kb/s
Channel(s) : 2 channels
Channel layout : L R
Sampling rate : 48.0 kHz
Frame rate : 46.875 FPS (1024 SPF)
Compression mode : Lossy
Delay relative to video : 5 ms
Stream size : 25.5 MiB (7%)
Title : WWW.BLUDV.TV
Language : English
Default : No
Forced : No

Updated: 17 de janeiro de 2022 — 12:18

Deixe uma resposta

O seu endereço de e-mail não será publicado. Campos obrigatórios são marcados com *

BaixarTurbo © 2018