Ben 10: A Corrida Contra O Tempo

FICHA TÉCNICA

Título Original: Ben 10: Race Against Time
Diretor: Alex Winter
Genero: Ação / Aventura / Família
Ano de Lançamento: 2008
Qualidade: 1080P WEB-DL
Formato: MKV
Áudio: Dual Áudio
Legenda: Embutida (selecionável)
Tamanho: 6,4 GB
Tempo de Duração: 01:07:00

Sinopse: Sinopse : Ben, Gwen e Max devem deter um extraterrestre que planeja abrir a porta para uma invasão de alienígenas.

banner

bannerGraham Phillips – Ben Tennyson
Christien Anholt – Eon
Haley Ramm – Gwen Tennyson
Beth Littleford – Sandra Tennyson
Don McManus – Carl Tennyson
Lee Majors – Grandpa Max Tennyson

WEB-DL 1080P

Download Ben 10 - A Corrida Contra O Tempo [Ben 10: Race Against Time] WEB-DL 1080P

Ben 10 - A Corrida Contra O Tempo Bluray 1080p Bluray Remux 4K UHD 2160p HDR

Spoiler

Video
ID : 1
Format : AVC
Format/Info : Advanced Video Codec
Format profile : [email protected]
Format settings : CABAC / 4 Ref Frames
Format settings, CABAC : Yes
Format settings, Reference fra : 4 frames
Codec ID : V_MPEG4/ISO/AVC
Duration : 1 h 7 min
Bit rate mode : Variable
Bit rate : 13.1 Mb/s
Maximum bit rate : 15.0 Mb/s
Width : 1 920 pixels
Height : 1 080 pixels
Display aspect ratio : 16:9
Frame rate mode : Constant
Frame rate : 23.976 (24000/1001) FPS
Color space : YUV
Chroma subsampling : 4:2:0
Bit depth : 8 bits
Scan type : Progressive
Bits/(Pixel*Frame) : 0.263
Stream size : 6.11 GiB (96%)
Title : Ben 10 Race Against Time
Language : English
Default : Yes
Forced : No
Color range : Limited
Color primaries : BT.709
Transfer characteristics : BT.709
Matrix coefficients : BT.709

Audio #1
ID : 2
Format : AC-3
Format/Info : Audio Coding 3
Commercial name : Dolby Digital
Codec ID : A_AC3
Duration : 1 h 7 min
Bit rate mode : Constant
Bit rate : 128 kb/s
Channel(s) : 2 channels
Channel layout : L R
Sampling rate : 48.0 kHz
Frame rate : 31.250 FPS (1536 SPF)
Compression mode : Lossy
Stream size : 61.4 MiB (1%)
Title : PT-BR
Language : Portuguese
Service kind : Complete Main
Default : Yes
Forced : No

Audio #2
ID : 3
Format : AC-3
Format/Info : Audio Coding 3
Commercial name : Dolby Digital
Codec ID : A_AC3
Duration : 1 h 7 min
Bit rate mode : Constant
Bit rate : 384 kb/s
Channel(s) : 2 channels
Channel layout : L R
Sampling rate : 48.0 kHz
Frame rate : 31.250 FPS (1536 SPF)
Compression mode : Lossy
Stream size : 184 MiB (3%)
Title : English
Language : English
Service kind : Complete Main
Default : No
Forced : No

Text #1
ID : 4
Format : UTF-8
Codec ID : S_TEXT/UTF8
Codec ID/Info : UTF-8 Plain Text
Duration : 1 h 4 min
Bit rate : 65 b/s
Count of elements : 925
Stream size : 30.7 KiB (0%)
Title : PT-BR
Language : Portuguese
Default : No
Forced : No

Text #2
ID : 5
Format : UTF-8
Codec ID : S_TEXT/UTF8
Codec ID/Info : UTF-8 Plain Text
Duration : 1 h 5 min
Bit rate : 76 b/s
Count of elements : 1205
Stream size : 36.4 KiB (0%)
Title : English
Language : English
Default : No
Forced : No


BaixarBluray.net / Siga-nos no Twitter

Ben 10 - A Corrida Contra O Tempo Bluray 1080p Bluray Remux 4K UHD 2160p HDR

Ben 10 – A Corrida Contra O Tempo, download, baixar, dublado, dual audio

Updated: 20 de setembro de 2022 — 14:31

Deixe um comentário

O seu endereço de e-mail não será publicado.

BaixarTurbo © 2018