Bastardos Inglórios – Bluray 1080P – Dual Áudio

FICHA TÉCNICA

Título Original: Inglourious Basterds
Diretor: Quentin Tarantino, Eli Roth
Genero: Drama / Guerra
Ano de Lançamento: 2009
Qualidade: Bluray 1080P
Formato: MKV
Idioma: Português/Inglês
Legenda: Embutida PGS (selecionável)
Tamanho: 13.6 GB
Tempo de Duração: 153 Minutos
Qualidade de Vídeo: 10
Qualidade de Áudio: 10
Servidor: BRupload

Sinopse: 2ª Guerra Mundial. A França está ocupada pelos nazistas. O tenente Aldo Raine (Brad Pitt) é o encarregado de reunir um pelotão de soldados de origem judaica, com o objetivo de realizar uma missão suicida contra os alemães. O objetivo é matar o maior número possível de nazistas, da forma mais cruel possível. Paralelamente Shosanna Dreyfuss (Mélanie Laurent) assiste a execução de sua família pelas mãos do coronel Hans Landa (Christoph Waltz), o que faz com que fuja para Paris. Lá ela se disfarça como operadora e dona de um cinema local, enquanto planeja um meio de se vingar.

banner

banner

Spoiler

Video
ID : 1
Format : AVC
Format/Info : Advanced Video Codec
Format profile : [email protected]
Format settings : CABAC / 1 Ref Frames
Format settings, CABAC : Yes
Format settings, Reference frames : 1 frame
Format settings, GOP : M=1, N=25
Codec ID : V_MPEG4/ISO/AVC
Duration : 2 h 32 min
Bit rate mode : Constant
Bit rate : 21.6 Mb/s
Nominal bit rate : 11.8 Mb/s
Width : 1 920 pixels
Height : 1 080 pixels
Display aspect ratio : 16:9
Frame rate mode : Constant
Frame rate : 23.976 (24000/1001) FPS
Color space : YUV
Chroma subsampling : 4:2:0
Bit depth : 8 bits
Scan type : Progressive
Bits/(Pixel*Frame) : 0.434
Stream size : 23.0 GiB
Title : MPEG-4 AVC Video / 21765 kbps / 1080p / 23,976 fps / 16:9 / High Profile 4.1
Language : English
Default : Yes
Forced : No

Audio #1
ID : 2
Format : AAC LC
Format/Info : Advanced Audio Codec Low Complexity
Codec ID : A_AAC-2
Duration : 2 h 32 min
Bit rate : 3 513 kb/s
Channel(s) : 6 channels
Channel layout : C L R Ls Rs LFE
Sampling rate : 48.0 kHz
Frame rate : 46.875 FPS (1024 SPF)
Compression mode : Lossy
Stream size : 3.75 GiB (28%)
Title : DTS-HD Master Audio / 5.1 / 48 kHz / 3513 kbps / 24-bit
Language : English
Default : Yes
Forced : No

Audio #2
ID : 3
Format : AC-3
Format/Info : Audio Coding 3
Commercial name : Dolby Digital
Codec ID : A_AC3
Duration : 2 h 32 min
Bit rate mode : Constant
Bit rate : 256 kb/s
Channel(s) : 2 channels
Channel layout : L R
Sampling rate : 48.0 kHz
Frame rate : 31.250 FPS (1536 SPF)
Bit depth : 16 bits
Compression mode : Lossy
Delay relative to video : -5 ms
Stream size : 700 MiB (5%)
Language : Portuguese
Service kind : Complete Main
Default : Yes
Forced : No

Text
ID : 4
Format : PGS
Codec ID : S_HDMV/PGS
Codec ID/Info : Picture based subtitle format used on BDs/HD-DVDs
Duration : 2 h 32 min
Bit rate : 31.4 kb/s
Count of elements : 3565
Stream size : 33.9 MiB (0%)
Language : Portuguese
Default : Yes
Forced : No

bannerBrad Pitt
Mélanie Laurent
Christoph Waltz
Eli Roth

Bluray 1080P

banner

Updated: 15 de novembro de 2019 — 11:36

Deixe uma resposta

O seu endereço de e-mail não será publicado. Campos obrigatórios são marcados com *

BaixarTurbo © 2018