A Ilha – Bluray 1080P – Dual Áudio

FICHA TÉCNICA

Título Original: The Island
Diretor: Michael Bay
Genero: Ação / Aventura / Ficção
Ano de Lançamento: 2005
Qualidade: Bluray 1080P
Formato: MKV
Idioma: Português/Inglês
Legenda: Embutida no rar
Tamanho: 16.3 GB
Tempo de Duração: 136 Minutos
Qualidade de Vídeo: 10
Qualidade de Áudio: 10
Servidor: BRupload

Sinopse: No futuro existe uma entidade utópica baseada na vida do século XX!, que procura recriá-la nos mínimos detalhes. Lincoln Six Echo (Ewan McGregor) vive nesta realidade e, como todos seus residentes, sonha em chegar em um local chamado “a ilha”, o único ponto não contaminado do planeta. Após descobrir que todos os habitantes são clones, que possuem a única finalidade de fornecer partes de seu corpo para seres humanos reais, Lincoln decide escapar juntamente com Jordan Two Delta (Scarlett Johansson).

banner

banner

Spoiler

Video
ID : 1
Format : AVC
Format/Info : Advanced Video Codec
Format profile : [email protected]
Format settings : CABAC / 1 Ref Frames
Format settings, CABAC : Yes
Format settings, Reference frames : 1 frame
Format settings, GOP : M=1, N=25
Codec ID : V_MPEG4/ISO/AVC
Duration : 2 h 16 min
Bit rate mode : Constant
Bit rate : 12.2 Mb/s
Width : 1 920 pixels
Height : 1 080 pixels
Display aspect ratio : 16:9
Frame rate mode : Constant
Frame rate : 23.976 (24000/1001) FPS
Color space : YUV
Chroma subsampling : 4:2:0
Bit depth : 8 bits
Scan type : Progressive
Bits/(Pixel*Frame) : 0.245
Stream size : 11.6 GiB (71%)
Language : English
Default : Yes
Forced : No

Audio #1
ID : 2
Format : DTS XLL
Format/Info : Digital Theater Systems
Commercial name : DTS-HD Master Audio
Codec ID : A_DTS
Duration : 2 h 16 min
Bit rate mode : Variable
Bit rate : 4 391 kb/s
Channel(s) : 6 channels
Channel layout : C L R Ls Rs LFE
Sampling rate : 48.0 kHz
Frame rate : 93.750 FPS (512 SPF)
Bit depth : 24 bits
Compression mode : Lossless
Stream size : 4.17 GiB (26%)
Language : English
Default : Yes
Forced : No

Audio #2
ID : 3
Format : AC-3
Format/Info : Audio Coding 3
Commercial name : Dolby Digital
Codec ID : A_AC3
Duration : 2 h 16 min
Bit rate mode : Constant
Bit rate : 640 kb/s
Channel(s) : 6 channels
Channel layout : L R C LFE Ls Rs
Sampling rate : 48.0 kHz
Frame rate : 31.250 FPS (1536 SPF)
Compression mode : Lossy
Stream size : 623 MiB (4%)
Title : Surround
Language : Portuguese
Service kind : Complete Main
Default : No
Forced : No

bannerEwan McGregor
Scarlett Johansson
Djimon Hounsou
Sean Bean

Bluray 1080P

banner

Updated: 15 de novembro de 2019 — 14:18

Deixe uma resposta

O seu endereço de e-mail não será publicado. Campos obrigatórios são marcados com *

BaixarTurbo © 2018